The Beatles Abbey Road Flac

 
The Beatles Abbey Road Flac

The Beatles Discography Flac

Exact Audio Copy V1.3 from 2. September 2016
EAC extraction logfile from 10. October 2019, 19:32
The Beatles / Abbey Road (Anniversary Edition)
Used drive : PLEXTOR PX-891SAF PLUS Adapter: 1 ID: 0
Read mode : Secure
Utilize accurate stream : Yes
Defeat audio cache : Yes
Make use of C2 pointers : No
Read offset correction : 6
Overread into Lead-In and Lead-Out : No
Fill up missing offset samples with silence : Yes
Delete leading and trailing silent blocks : No
Null samples used in CRC calculations : Yes
Used interface : Native Win32 interface for Win NT & 2000
Gap handling : Appended to previous track
Used output format : User Defined Encoder
Selected bitrate : 1024 kBit/s
Quality : High
Add ID3 tag : No
Command line compressor : C:Program Files (x86)Exact Audio CopyFlacflac.exe
Additional command line options : -0 -V -T 'ARTIST=%artist%' -T 'TITLE=%title%' -T 'ALBUM=%albumtitle%' -T 'DATE=%year%' -T 'TRACKNUMBER=%tracknr%' -T 'TOTALTRACKS=%numtracks%' -T 'GENRE=%genre%' -T 'COMMENT=Naftamusic Release!' %source%
TOC of the extracted CD
Track Start Length Start sector End sector
---------------------------------------------------------
1 0:00.00 4:20.15 0 19514
2 4:20.15 3:02.17 19515 33181
3 7:22.32 3:27.73 33182 48779
4 10:50.30 3:27.11 48780 64315
5 14:17.41 2:50.60 64316 77125
6 17:08.26 7:47.27 77126 112177
7 24:55.53 3:05.53 112178 126105
8 28:01.31 2:45.46 126106 138526
9 30:47.02 4:02.50 138527 156726
10 34:49.52 2:26.25 156727 167701
11 37:16.02 1:06.35 167702 172686
12 38:22.37 1:12.60 172687 178146
13 39:35.22 1:58.61 178147 187057
14 41:34.08 1:31.33 187058 193915
15 43:05.41 1:36.33 193916 201148
16 44:41.74 2:21.68 201149 211791
17 47:03.67 0:25.09 211792 213675
Track 1
Filename E:Nafta ReleasesThe Beatles - Abbey Road (Anniversary Edition 2 CD 2019) [FLAC] - NaftamusicCD 101 - Come Together.wav
Pre-gap length 0:00:02.00
Peak level 98.9 %
Extraction speed 2.7 X
Track quality 100.0 %
Test CRC C02D9AA3
Copy CRC C02D9AA3
Accurately ripped (confidence 36) [5275CFEF] (AR v2)
Copy OK
Track 2
Filename E:Nafta ReleasesThe Beatles - Abbey Road (Anniversary Edition 2 CD 2019) [FLAC] - NaftamusicCD 102 - Something.wav
Peak level 98.9 %
Extraction speed 2.1 X
Track quality 99.9 %
Test CRC 9EE5A587
Copy CRC 9EE5A587
Accurately ripped (confidence 36) [E1B666E8] (AR v2)
Copy OK
Track 3
Filename E:Nafta ReleasesThe Beatles - Abbey Road (Anniversary Edition 2 CD 2019) [FLAC] - NaftamusicCD 103 - Maxwell's Silver Hammer.wav
Peak level 98.9 %
Extraction speed 3.1 X
Track quality 100.0 %
Test CRC FF23F358
Copy CRC FF23F358
Accurately ripped (confidence 36) [1E08EC5B] (AR v2)
Copy OK
Track 4
Filename E:Nafta ReleasesThe Beatles - Abbey Road (Anniversary Edition 2 CD 2019) [FLAC] - NaftamusicCD 104 - Oh! Darling.wav
Peak level 98.9 %
Extraction speed 2.6 X
Track quality 99.9 %
Test CRC F946A421
Copy CRC F946A421
Accurately ripped (confidence 36) [34EE49A1] (AR v2)
Copy OK
Track 5
Filename E:Nafta ReleasesThe Beatles - Abbey Road (Anniversary Edition 2 CD 2019) [FLAC] - NaftamusicCD 105 - Octopus's Garden.wav
Peak level 98.9 %
Extraction speed 3.4 X
Track quality 100.0 %
Test CRC 03AB20D1
Copy CRC 03AB20D1
Accurately ripped (confidence 36) [2772534C] (AR v2)
Copy OK
Track 6
Filename E:Nafta ReleasesThe Beatles - Abbey Road (Anniversary Edition 2 CD 2019) [FLAC] - NaftamusicCD 106 - I Want You (She's So Heavy).wav
Peak level 98.9 %
Extraction speed 4.1 X
Track quality 100.0 %
Test CRC CC3DE874
Copy CRC CC3DE874
Accurately ripped (confidence 36) [66AC7485] (AR v2)
Copy OK
Track 7
Filename E:Nafta ReleasesThe Beatles - Abbey Road (Anniversary Edition 2 CD 2019) [FLAC] - NaftamusicCD 107 - Here Comes the Sun.wav
Peak level 98.9 %
Extraction speed 4.0 X
Track quality 100.0 %
Test CRC EB7E232B
Copy CRC EB7E232B
Accurately ripped (confidence 34) [2F01A66D] (AR v2)
Copy OK
Track 8
Filename E:Nafta ReleasesThe Beatles - Abbey Road (Anniversary Edition 2 CD 2019) [FLAC] - NaftamusicCD 108 - Because.wav
Peak level 98.0 %
Extraction speed 4.0 X
Track quality 100.0 %
Test CRC 6B788E89
Copy CRC 6B788E89
Accurately ripped (confidence 35) [7BC0BA30] (AR v2)
Copy OK
Track 9
Filename E:Nafta ReleasesThe Beatles - Abbey Road (Anniversary Edition 2 CD 2019) [FLAC] - NaftamusicCD 109 - You Never Give Me Your Money.wav
Peak level 98.9 %
Extraction speed 3.5 X
Track quality 99.9 %
Test CRC DC351B20
Copy CRC DC351B20
Accurately ripped (confidence 36) [0DBC7201] (AR v2)
Copy OK
Track 10
Filename E:Nafta ReleasesThe Beatles - Abbey Road (Anniversary Edition 2 CD 2019) [FLAC] - NaftamusicCD 110 - Sun King.wav
Peak level 97.9 %
Extraction speed 4.2 X
Track quality 100.0 %
Test CRC AF8973BD
Copy CRC AF8973BD
Accurately ripped (confidence 35) [CDF44C5E] (AR v2)
Copy OK
Track 11
Filename E:Nafta ReleasesThe Beatles - Abbey Road (Anniversary Edition 2 CD 2019) [FLAC] - NaftamusicCD 111 - Mean Mr. Mustard.wav
Peak level 98.9 %
Extraction speed 3.5 X
Track quality 100.0 %
Test CRC 72422ED8
Copy CRC 72422ED8
Accurately ripped (confidence 36) [F4C0628F] (AR v2)
Copy OK
Track 12
Filename E:Nafta ReleasesThe Beatles - Abbey Road (Anniversary Edition 2 CD 2019) [FLAC] - NaftamusicCD 112 - Polythene Pam.wav
Peak level 98.9 %
Extraction speed 3.6 X
Track quality 100.0 %
Test CRC B5EC6DAA
Copy CRC B5EC6DAA
Accurately ripped (confidence 34) [5C7105C3] (AR v2)
Copy OK
Track 13
Filename E:Nafta ReleasesThe Beatles - Abbey Road (Anniversary Edition 2 CD 2019) [FLAC] - NaftamusicCD 113 - She Came In Through the Bathroom Window.wav
Peak level 98.9 %
Extraction speed 4.2 X
Track quality 100.0 %
Test CRC 0F7F6DA4
Copy CRC 0F7F6DA4
Accurately ripped (confidence 34) [5E6ED1FB] (AR v2)
Copy OK
Track 14
Filename E:Nafta ReleasesThe Beatles - Abbey Road (Anniversary Edition 2 CD 2019) [FLAC] - NaftamusicCD 114 - Golden Slumbers.wav
Peak level 98.9 %
Extraction speed 4.0 X
Track quality 100.0 %
Test CRC B7C01F06
Copy CRC B7C01F06
Accurately ripped (confidence 35) [E66F606C] (AR v2)
Copy OK
Track 15
Filename E:Nafta ReleasesThe Beatles - Abbey Road (Anniversary Edition 2 CD 2019) [FLAC] - NaftamusicCD 115 - Carry That Weight.wav
Peak level 98.9 %
Extraction speed 4.1 X
Track quality 100.0 %
Test CRC B7EC83B4
Copy CRC B7EC83B4
Accurately ripped (confidence 34) [DA805B4B] (AR v2)
Copy OK
Track 16
Filename E:Nafta ReleasesThe Beatles - Abbey Road (Anniversary Edition 2 CD 2019) [FLAC] - NaftamusicCD 116 - The End.wav
Peak level 98.9 %
Extraction speed 4.4 X
Track quality 100.0 %
Test CRC 080007AE
Copy CRC 080007AE
Accurately ripped (confidence 33) [C36ADF24] (AR v2)
Copy OK
Track 17
Filename E:Nafta ReleasesThe Beatles - Abbey Road (Anniversary Edition 2 CD 2019) [FLAC] - NaftamusicCD 117 - Her Majesty.wav
Peak level 98.2 %
Extraction speed 2.3 X
Track quality 100.0 %
Test CRC 929A2510
Copy CRC 929A2510
Accurately ripped (confidence 34) [16F4E741] (AR v2)
Copy OK
All tracks accurately ripped
No errors occurred
End of status report
Log checksum D92C57931148197C980937B49B07A67C4557B3C20E41E63FA51E01FD6407FF69

Beatles Flac Audio

To create Abbey Road’s new stereo, 5.1 surround, and Dolby Atmos mixes, Martin and Okell worked with an expert team of engineers and audio restoration specialists at Abbey Road Studios. This Super Deluxe Edition of Abbey Road features the new stereo album mix, sourced directly from the. Topics The Beatles, Album, Free, Download, Abbey Road. Google utc. The entire Abbey Road Album. MUST BE USED FOR EDUCATIONAL PURPOSES. IF NOT YOU MAY BE COMITTING A. The Beatles - 2019 - Abbey Road (Super Deluxe Edition) (3CD) FLAC Artist: The Beatles Title: Abbey Road (Super Deluxe Edition) Format: 3 x CD, Album, Remastered Producer: Giles Martin Release Date: September 26, 2019 Recorded: February 22 - August 20, 1969 at EMI, Olympic and Trident Studios, London Label: Apple Corps Ltd./Capitol/UMe. Quality: FLAC 24 bit / 96 kHz (Tracks) Artist: The Beatles Title: Abbey Road (2019 Mix) (Remastered) Released: 2019 Style: Rock RAR Size: 1.09 Gb Album information I like. Here's the full Abbey Road Medley by The Beatles from a 2009 Stereo Remaster FLAC copy. One of recording music's finest moments by the best band that ever ex.